Movies

A Zed and Two Noughts 1985 1080p BluRay H264 AAC-RARBG

  • Download 5x Faster
  • Download torrent
  • Direct Download
  • Rate this torrent +  |  -

Torrent info

Name:A Zed and Two Noughts 1985 1080p BluRay H264 AAC-RARBG

Total Size: 2.22 GB

Magnet: Magnet Link

Seeds: 23

Leechers: 22

Stream: Watch Full Movie @ Movie4u

Last Updated: 2018-12-06 17:10:40 (Update Now)

Torrent added: 2018-12-06 17:10:38



CyberGhost VPN For Torrents

Torrent Files List


A.Zed.and.Two.Noughts.1985.1080p.BluRay.H264.AAC-RARBG.mp4 (Size: 2.22 GB) (Files: 3)

 A.Zed.and.Two.Noughts.1985.1080p.BluRay.H264.AAC-RARBG.mp4

2.22 GB

 RARBG.txt

0.03 KB

 Subs

  2_Eng.srt

101.88 KB
 

tracker

leech seeds
 

Torrent description

http://www.imdb.com/title/tt0090366/


Twin zoologists lose their wives in a car accident and become obsessed with decomposing animals.


Video
ID : 1
Format : AVC
Format/Info : Advanced Video Codec
Format profile : [emailprotected]
Format settings, CABAC : Yes
Format settings, ReFrames : 4 frames
Codec ID : V_MPEG4/ISO/AVC
Duration : 1h 56mn
Bit rate : 11.5 Mbps
Width : 1 804 pixels
Height : 1 080 pixels
Display aspect ratio : 5:3
Frame rate mode : Constant
Frame rate : 24.000 fps
Color space : YUV
Chroma subsampling : 4:2:0
Bit depth : 8 bits
Scan type : Progressive
Bits/(Pixel*Frame) : 0.246
Stream size : 9.03 GiB (86%)
Title : A.Zed.and.Two.Noughts.1985.1080p.BluRay.x264.DTS-FGT
Writing library : x264 core 148 r2694 3b70645
Language : English
Default : Yes
Forced : No

Audio
ID : 2
Format : DTS
Format/Info : Digital Theater Systems
Mode : 16
Format settings, Endianness : Big
Codec ID : A_DTS
Duration : 1h 56mn
Bit rate mode : Constant
Bit rate : 1 536 Kbps
Channel(s) : 2 channels
Channel positions : Front: L R
Sampling rate : 48.0 KHz
Frame rate : 93.750 fps (512 spf)
Bit depth : 16 bits
Compression mode : Lossy
Stream size : 1.25 GiB (12%)
Title : A.Zed.and.Two.Noughts.1985.1080p.BluRay.x264.DTS-FGT
Language : English
Default : Yes
Forced : No

Text
ID : 3
Format : UTF-8
Codec ID : S_TEXT/UTF8
Codec ID/Info : UTF-8 Plain Text
Language : English
Default : Yes
Forced : No

related torrents

Torrent name

health leech seeds Size
 


comments (0)

Main Menu

 

Sitemap