Movies

Magical Girl 2014 SPANISH 1080p BluRay H264 AAC-VXT

  • Download 5x Faster
  • Download torrent
  • Direct Download
  • Rate this torrent +  |  -

Torrent info

Name:Magical Girl 2014 SPANISH 1080p BluRay H264 AAC-VXT

Total Size: 2.42 GB

Magnet: Magnet Link

Seeds: 58

Leechers: 30

Stream: Watch Full Movie @ Movie4u

Last Updated: 2018-12-06 15:40:15 (Update Now)

Torrent added: 2018-12-06 15:40:12



CyberGhost VPN For Torrents

Torrent Files List


Magical.Girl.2014.SPANISH.1080p.BluRay.H264.AAC-VXT.mp4 (Size: 2.42 GB) (Files: 3)

 Magical.Girl.2014.SPANISH.1080p.BluRay.H264.AAC-VXT.mp4

2.42 GB

 RARBG.txt

0.03 KB

 Subs

  2_Eng.srt

64.94 KB
 

tracker

leech seeds
 

Torrent description

http://www.imdb.com/title/tt0090366/


Twin zoologists lose their wives in a car accident and become obsessed with decomposing animals.


Video
ID : 1
Format : AVC
Format/Info : Advanced Video Codec
Format profile : [emailprotected]
Format settings : CABAC / 4 Ref Frames
Format settings, CABAC : Yes
Format settings, ReFrames : 4 frames
Codec ID : avc1
Codec ID/Info : Advanced Video Coding
Duration : 1 h 56 min
Bit rate : 2 500 kb/s
Width : 1 804 pixels
Height : 1 080 pixels
Display aspect ratio : 5:3
Frame rate mode : Constant
Frame rate : 24.000 FPS
Color space : YUV
Chroma subsampling : 4:2:0
Bit depth : 8 bits
Scan type : Progressive
Bits/(Pixel*Frame) : 0.053
Stream size : 2.03 GiB (92%)
Writing library : x264 core 152 r2851M ba24899
Encoding settings : cabac=1 / ref=4 / deblock=1:-1:-1 / analyse=0x3:0x113 / me=umh / subme=9 / psy=1 / psy_rd=1.00:0.15 / mixed_ref=1 / me_range=24 / chroma_me=1 / trellis=2 / 8x8dct=1 / cqm=0 / deadzone=21,11 / fast_pskip=1 / chroma_qp_offset=-3 / threads=32 / lookahead_threads=4 / sliced_threads=0 / nr=0 / decimate=1 / interlaced=0 / bluray_compat=0 / constrained_intra=0 / bframes=3 / b_pyramid=2 / b_adapt=2 / b_bias=0 / direct=3 / weightb=1 / open_gop=0 / weightp=2 / keyint=250 / keyint_min=25 / scenecut=40 / intra_refresh=0 / rc_lookahead=50 / rc=2pass / mbtree=1 / bitrate=2500 / ratetol=1.0 / qcomp=0.60 / qpmin=0 / qpmax=69 / qpstep=4 / cplxblur=20.0 / qblur=0.5 / vbv_maxrate=31250 / vbv_bufsize=31250 / nal_hrd=none / filler=0 / ip_ratio=1.40 / aq=3:1.00
Encoded date : UTC 2018-12-05 10:53:28
Tagged date : UTC 2018-12-05 10:53:28
Codec configuration box : avcC

Audio
ID : 2
Format : AAC LC
Format/Info : Advanced Audio Codec Low Complexity
Codec ID : mp4a-40-2
Duration : 1 h 56 min
Bit rate mode : Constant
Bit rate : 224 kb/s
Channel(s) : 2 channels
Channel layout : L R
Sampling rate : 48.0 kHz
Frame rate : 46.875 FPS (1024 SPF)
Compression mode : Lossy
Stream size : 187 MiB (8%)
Language : English
Default : Yes
Alternate group : 1
Encoded date : UTC 2018-12-05 10:53:28
Tagged date : UTC 2018-12-05 10:53:28

related torrents

Torrent name

health leech seeds Size
 


comments (0)

Main Menu

 

Sitemap